Notifications
Clear all

Cue sheet File PSX World Soccer Jikkyou Winning Eleven 3 - World Cup France '98 (Japan) (v1.1) Cue Sheet

1 Posts
1 Users
0 Likes
19 Views
(@we11world_pinodiego)
Winning Eleven Admin
Joined: 3 meses ago
Posts: 4849
Topic starter  
PSX World Soccer Jikkyou Winning Eleven 3 - World Cup France '98 (Japan) (v1.1) Cue Sheet

Cue sheet:
Una hoja cue, cue sheet o archivo .cue es un archivo de texto Unicode que especifica cómo se distribuyen las pistas de datos en un disco compacto.

Los archivos cue comúnmente tienen la extensión ".cue", son originalmente usados por el programa CDRWIN para hacer imágenes ISO, y actualmente usados por muchos programas audiovisuales y de grabación de CD, como Nero Burning ROM.

Para un CD audio, la hoja cue puede especificar títulos y autores para el disco, así como los nombres de cada una de las pistas, OGG, MP3, WAV, FLAC, etcétera, y archivos binarios (BIN) son usados generalmente.

Las hojas cue son especialmente usadas para grabar o escuchar discos donde todas las pistas son grabadas en un único archivo que contiene todo el audio, y la hoja cue es la que especifica al reproductor cuándo termina una pista y comienza otra.

Definiciones
Title - el nombre de la grabación (ejemplo: Live at the Bassment).
Performer - artista o DJ.
Filename - el nombre del archivo específico que contiene el cue sheet al que hace referencia el archivo (ejemplo: liveset.mp3).
Track - el nombre de la pista de audio.
Track Times - el comienzo de la pista, expresado en el formato MM:SS:FR (minutos-segundos-frames).

PSX World Soccer Jikkyou Winning Eleven 3 - World Cup France '98 (Japan) (v1.1) Cue Sheet

FILE "World Soccer Jikkyou Winning Eleven 3 - World Cup France '98 (Japan) (v1.1) (Track 1).bin" BINARY
TRACK 01 MODE2/2352
INDEX 01 00:00:00
FILE "World Soccer Jikkyou Winning Eleven 3 - World Cup France '98 (Japan) (v1.1) (Track 2).bin" BINARY
TRACK 02 AUDIO
INDEX 00 00:00:00
INDEX 01 00:02:00
FILE "World Soccer Jikkyou Winning Eleven 3 - World Cup France '98 (Japan) (v1.1) (Track 3).bin" BINARY
TRACK 03 AUDIO
INDEX 00 00:00:00
INDEX 01 00:02:00

Winning Eleven
En 1996, tras el éxito International Superstar Soccer Deluxe, Konami decidió crear otro título de fútbol pero no con la misma gente, así se le entregó el trabajo a Konami Computer Entertainment Tokyo quienes Crearon: World Soccer Winning Eleven, conocido como Goal Storm en Europa y Norteamérica.  El mismo dio comienzo a una saga completamente ajena a International Superstar Soccer, a pesar de que varios de los títulos de la nueva franquicia llevan los mismos nombres que ésta.

Al año siguiente salió a la venta Winning Eleven 97 (llamado International Superstar Soccer Pro en Europa y Goal Storm 97 en Norteamérica. La saga continuó con Winning Eleven 3 y Winning Eleven 4 ( llamados en el resto del mundo como International Superstar Soccer Pro 98 y International Superstar Soccer Pro Evolution, respectivamente ). En marzo de 2001, antes de la aparición de la quinta edición de Winning Eleven, salió a la venta International Superstar Soccer Pro Evolution 2, siendo éste la segunda parte de ISS Pro Evolution (en Japón, World Soccer Jikkyou Winning Eleven 2000: U-23 Medal Heno Chousen) y el último Winning Eleven conocido como ISS fuera del país asiático, ya que en octubre del mismo año se lanzó Winning Eleven 5 para PlayStation 2, que sería titulado en Europa como Pro Evolution Soccer, iniciando una nueva franquicia que persiste hasta la fecha. Cabe destacar que Winning Eleven 2002 salió solamente en Japón y Europa para PlayStation, en el viejo continente seria conocido como Pro Evolution Soccer 2 y que seria el último título en dicho sistema.

Winning Eleven 2002
[Image: winning-eleven-2002-jpg.jpg]

░░░ WE11World ░░░⚽️⚽️⚽️
Link: Winning Eleven / Pro Evolution Soccer / eFootball✅✅✅
Link Old Forums MyBB❌❌❌

?Update Board: - MyBB - there is no way to preserve passwords
Users should reset their passwords using “Lost your password?” link located under forum login form .✅
? Apologies for any inconvenience caused by Staff Forum


   
Quote
Share: